23
Jul

Black Widow 2021 License torrent townload

Download here

Director: Cate Shortland

Authors: Eric Pearson (screenplay), Jac Schaeffer (story), Ned Benson (story)

Stars: Scarlett Johansson, Florence Pugh, David Harbor

Plot / story:

A movie about Natasha Romanoff on her quest for the Civil War and Infinity War movies.

am

Full name:

Format: AVI

Format / Data: Video Audio Interleave

File size: GiB

Duration: 2 hours 13 min

Total bit rate: 1741 kbps

Subtitle: for the non-English part + attachment (HI)

Video

ID: 0

Format: MPEG-4 Visual

Profile format: advanced

Format setting, BVOP: 2

Format options, QPel: No.

Format options, GMC: no war

Format Options, Matrix: Default ()

Codec ID: XVID

Codec / Help ID: XviD

Duration: 2 hours 13 min

Bit rate: 1600 kbps

Width: 720 pixels

Height: 304 pixels

Screen aspect ratio: 1

Frame rate: (24000/1001) FPS

Color space: YUV

Chroma subsample: 4: 2: 0

Blade depth: 8 bits

Scan Type: Progressive

Packing space: wasteful

Bit / (pixel frame *):

Stream size: GiB (92%)

Writing Library: XviD 64

Audio

Personal identification number: 1

Format: MPEG Audio

Format version: Version 1

Profile shape: Layer 3

Codec ID: 55

ID / Codec Instructions: MP3

Duration: 2 hours 13 min

Bit rate mode: fixed

Bit rate: 128 kbps

Channels: 2 channels

Sampling frequency: kHz

Packing space: wasteful

Stream size: 122 MiB (7%)

Alignment: alignment in interlacing

Interlace duration: 24 ms (video frame)

Screenshot:

Sow as long as possible

Or at least 1: 1

Enjoy Peeps

Black Widow 2021

44 2 Torrent vote